extratorrent - A Fan Made Alternative Login   |   Register
Important Information
Registrations are open now
-------------------------------------

Please click here to register with Extratorrent2 to recieve latest updates, add bookmarks and to post comments.

Friends
Friends

1) ProxyFix

Extratorrent2 > Categories > Movies > Ghost.In.The.Shell.2017.HC.HDRip.XviD.AC3-EVO[PRiME] torrent


Browse Movies torrents

Ghost.In.The.Shell.2017.HC.HDRip.XviD.AC3-EVO[PRiME] torrent


Ghost in the Shell (2017)
Name: Ghost in the Shell
Released Year: 2017
Runtime: 107 mins
Gener: Action, Crime, Drama
Director: Rupert Sanders
Country: USA, India, China, Japan, Hong Kong, UK, New Zealand, C
IMDB Rating: 6.7/10
Plot: In the near future, Major is the first of her kind: A human saved from a terrible crash, who is cyber-enhanced to be a perfect soldier devoted to stopping the world's most dangerous criminals.

Download torrent: Download Ghost.In.The.Shell.2017.HC.HDRip.XviD.AC3-EVO[PRiME] torrent Magnet link Bookmark Torrent: Ghost.In.The.Shell.2017.HC.HDRip.XviD.AC3-EVO[PRiME]   Ghost.In.The.Shell.2017.HC.HDRip.XviD.AC3-EVO[PRiME] torrent
Info hash: B1279E0DB99462A72CDD8640339170A3020E8656
Category: Categories > Movies
Trackers:
View all torrent trackers >
Health:
 seeds: 0 ,  leechers: 1 |  Update >
Torrent language: English English
Total Size: 1.4 GB
Files List:
5    View torrent files >
Uploader:
showstopper
Torrent added: May 8, 2017, 6:07 am
IMDB: http://www.imdb.com/title/tt1219827
Users rating: ---, not rated. please login to rate.

Download Ghost.In.The.Shell.2017.HC.HDRip.XviD.AC3-EVO[PRiME] torrent



Torrent Description


Ghost.In.The.Shell.2017.HC.HDRip.XviD.AC3-EVO[PRiME]

ImDb: http://www.imdb.com/title/tt1219827



Complete name : Ghost.In.The.Shell.2017.HC.HDRip.XviD.AC3-EVO[PRiME].avi
Format : AVI
Format/Info : Audio Video Interleave
Format profile : OpenDML
Format settings : rec
File size : 1.34 GiB
Duration : 1 h 47 min
Overall bit rate : 1 790 kb/s
Writing application : AVI-Mux GUI 1.17.8.3, Feb 16 201019:42:50

Video
ID : 0
Format : MPEG-4 Visual
Format profile : Advanced
Format settings, BVOP : 2
Format settings, QPel : No
Format settings, GMC : No warppoints
Format settings, Matrix : Default (H.263)
Muxing mode : Packed bitstream
Codec ID : XVID
Codec ID/Hint : XviD
Duration : 1 h 47 min
Bit rate : 1 592 kb/s
Width : 720 pixels
Height : 400 pixels
Display aspect ratio : 16:9
Frame rate : 30.000 FPS
Color space : YUV
Chroma subsampling : 4:2:0
Bit depth : 8 bits
Scan type : Progressive
Compression mode : Lossy
Bits/(Pixel*Frame) : 0.184
Stream size : 1.19 GiB (89%)
Writing library : XviD 66

Audio
ID : 1
Format : AC-3
Format/Info : Audio Coding 3
Mode extension : CM (complete main)
Format settings, Endianness : Big
Codec ID : 2000
Duration : 1 h 47 min
Bit rate mode : Constant
Bit rate : 192 kb/s
Channel(s) : 2 channels
Channel positions : Front: L R
Sampling rate : 48.0 kHz
Frame rate : 31.250 FPS (1536 spf)
Compression mode : Lossy
Stream size : 147 MiB (11%)
Alignment : Aligned on interleaves
Interleave, duration : 64 ms (1.92 video frames)
Interleave, preload duration : 192 ms
Title : ac3




Click Image To View Full Size


Click To View Screenshot
Click To View Screenshot
Click To View Screenshot


Download Ghost.In.The.Shell.2017.HC.HDRip.XviD.AC3-EVO[PRiME] torrent


Related Torrents


Comments   (please login to add your comment!)

skyscape     pascal obispo obispo     isd     chico buarque     1990     riddick 2013 tbi     midget cum     kimmy granger tiny fuck doll     aladdin     the flash     cat 3     1080p hd xxx     abby     sami parker new     asian massage sharon     hindi     tatler     the exorcist s02e01     samurai jack     jusqu a la garde 2017     arrow iso     april 22 2018     cumsucking     praktan 2016 bengali     


Home - Browse Torrents

Made with love by an Extratorrent Fan!