extratorrent - A Fan Made Alternative Login   |   Register
Important Information
Registrations are open now
-------------------------------------

Please click here to register with Extratorrent2 to recieve latest updates, add bookmarks and to post comments.

Friends
Friends

1) ProxyFix

Extratorrent2 > Categories > Movies > [email protected] torrent


Browse Movies torrents

[email protected] torrent


Download torrent: Download Mile.22.2018.720p.HDRip.X264.AC3-iM@X torrent Magnet link Bookmark Torrent: Mile.22.2018.720p.HDRip.X264.AC3-iM@X   [email protected] torrent
Info hash: D22DECB9D60CEF9C320DD406855CA36279C9A1F4
Category: Categories > Movies
Trackers:
View all torrent trackers >
Health:
 seeds: 70 ,  leechers: 299 |  Update >
Torrent language: English English
Total Size: 1.2 GB
Files List:
2    View torrent files >
Uploader:
iMaX100
Torrent added: October 30, 2018, 4:31 am
Tags: Action, Thriller
Users rating: ---, not rated. please login to rate.

Download Mile.22.2018.720p.HDRip.X264.AC3-iM@X torrent



Torrent Description

Language: English

Genre: Action | Thriller

An elite American intelligence officer, aided by a top-secret tactical command unit, tries to smuggle a mysterious police officer with sensitive information out of the country.




Code:

Format : Matroska
Format version : Version 4 / Version 2
File size : 1.20 GiB
Duration : 1 h 34 min
Overall bit rate : 1 818 kb/s
Movie name : www.MOVEY.CC
Encoded date : UTC 2018-10-23 00:50:57
Writing application : mkvmerge v19.0.0 ('Brave Captain') 64-bit
Writing library : libebml v1.3.5 + libmatroska v1.4.8

Video
ID : 1
Format : AVC
Format/Info : Advanced Video Codec
Format profile :
Format settings : CABAC / 4 Ref Frames
Format settings, CABAC : Yes
Format settings, RefFrames : 4 frames
Codec ID : V_MPEG4/ISO/AVC
Duration : 1 h 34 min
Bit rate : 1 433 kb/s
Width : 1 280 pixels
Height : 536 pixels
Display aspect ratio : 2.40:1
Frame rate mode : Constant
Frame rate : 25.000 FPS
Color space : YUV
Chroma subsampling : 4:2:0
Bit depth : 8 bits
Scan type : Progressive
Bits/(Pixel*Frame) : 0.084
Stream size : 966 MiB (79%)
Title : www.MOVEY.CC
Writing library : x264 core 155 r2901 7d0ff22
Encoding settings : cabac=1 / ref=3 / deblock=1:-1:-1 / analyse=0x3:0x113 / me=hex / subme=7 / psy=1 / psy_rd=1.00:0.15 / mixed_ref=1 / me_range=16 / chroma_me=1 / trellis=1 / 8x8dct=1 / cqm=0 / deadzone=21,11 / fast_pskip=1 / chroma_qp_offset=-3 / threads=12 / lookahead_threads=2 / sliced_threads=0 / nr=0 / decimate=1 / interlaced=0 / bluray_compat=0 / constrained_intra=0 / bframes=3 / b_pyramid=2 / b_adapt=1 / b_bias=0 / direct=1 / weightb=1 / open_gop=0 / weightp=2 / keyint=250 / keyint_min=25 / scenecut=40 / intra_refresh=0 / rc_lookahead=40 / rc=2pass / mbtree=1 / bitrate=1433 / ratetol=1.0 / qcomp=0.60 / qpmin=0 / qpmax=69 / qpstep=4 / cplxblur=20.0 / qblur=0.5 / ip_ratio=1.40 / aq=1:1.00
Default : Yes
Forced : No

Audio
ID : 2
Format : AC-3
Format/Info : Audio Coding 3
Codec ID : A_AC3
Duration : 1 h 34 min
Bit rate mode : Constant
Bit rate : 384 kb/s
Channel(s) : 6 channels
Channel positions : Front: L C R, Side: L R, LFE
Sampling rate : 48.0 kHz
Frame rate : 31.250 FPS (1536 SPF)
Bit depth : 16 bits
Compression mode : Lossy
Delay relative to video : 155 ms
Stream size : 259 MiB (21%)
Title : www.MOVEY.CC
Language : English
Service kind : Complete Main
Default : Yes
Forced : No

Text #1
ID : 3
Format : UTF-8
Codec ID : S_TEXT/UTF8
Codec ID/Info : UTF-8 Plain Text
Duration : 1 h 25 min
Bit rate : 68 b/s
Count of elements : 1358
Stream size : 42.4 KiB (0%)
Title : www.MOVEY.CC
Language : English
Default : No
Forced : No

Text #2
ID : 4
Format : ASS
Codec ID : S_TEXT/ASS
Codec ID/Info : Advanced Sub Station Alpha
Duration : 5 min 5 s
Bit rate : 2 b/s
Count of elements : 1
Compression mode : Lossless
Stream size : 96.0 Bytes (0%)
Title : www.MOVEY.CC
Default : Yes
Forced : Yes


Download Mile.22.2018.720p.HDRip.X264.AC3-iM@X torrent


Related Torrents

Added  Size  Health
Download Magnet link Browse Movies torrent Mile.22.2018.HDRip.XviD.AC3-EVO[TGx] in Movies - h.264/x264, by
mazemaze16
2w 1.4 GB 154 27
Download Magnet link Browse Movies torrent Mile.22.2018.HDRip.XviD.AC3-EVO[EtMovies] in Movies - DVD, by
EtHD
2w 1.4 GB 1737 413
Download Magnet link Browse Movies torrent Mile.22.2018.720p.HDRip.X264.AC3-EVO[TGx] in Movies - HD, by
mazemaze16
2w 2.5 GB 2401 1595
Download Magnet link Browse Movies torrent Mile.22.2018.1080p.HDRip.X264.AC3-EVO[TGx] in Movies - HD, by
mazemaze16
2w 10.5 GB 208 118
Download Magnet link Browse Movies torrent Mile.22.2018.1080p.WEBRip.AAC2.0.x264-SHITBOX in Movies - HD, by
SeekNDstroy
2w 10.4 GB 196 107
Download Magnet link Browse Movies torrent Mile.22.2018.1080p.HDRip.X264.AC3-EVO in Movies - HD, by
SeekNDstroy
2w 10.5 GB 20 6



Comments   (please login to add your comment!)

monica santhiago     s07e07     rex     alex harper     game shakers s03e01     the serial     nahom     suji     soft matter     thief     jules jordan     housewife1on1     anal juice     london has fallen     peter     kittyhotts     top 50 2017     il trono di spade     janice     asian xxx     kendras     buy     fest     gagball     


Home - Browse Torrents

Made with love by an Extratorrent Fan!